Μετάβαση στο περιεχόμενο
вирус

DEVILS TREE ROOTED EVIL (2018) HDRip XviD AC3-EVO | ENΣΩΜΑΤΩΜΕΝΟΙ ΥΠΟΤΙΤΛΟΙ

Recommended Posts

GvawtLK.jpg
 

ΣΚΗΝΟΘΕΣΙΑ : Chris Alonso (co-director), Joshua Louis (co-director)

ΣΕΝΑΡΙΟ : Joshua Louis (story), Chris Alonso

ΗΘΟΠΟΙΟΙ : Diana D. Ambrosio, Ryan App, Chris Caputo

ΕΙΔΟΣ : Horror, Thriller 

ΠΡΕΜΙΕΡΑ : 27 February 2018 (USA)

 

ΜΕΤΑΦΡΑΣΗ : Άγνωστος

 

 

 

Εμπνευσμένη από αληθινά γεγονότα, η ταινία ακολουθεί την Σαμάνθα, μια φοιτήτρια κολλεγίου με ειδικότητα στην δημοσιογραφία, η οποία πρέπει να ολοκληρώσει την διατριβή της με μία πολύ καλή ιστορία. Μαζί με τον φίλο της Ρομπ, η Σαμάνθα πέφτει επάνω σε ένα ειδησεογραφικό άρθρο σχετικά με ένα παλιό δέντρο σε ένα τοπικό πάρκο στο οποίο συνέβησαν φρικτά πράγματα. Οι ντόπιοι ονόμασαν το δέντρο, " Δέντρο του Διαβόλου" λόγω των αστικών θρύλων του για μαζικές δολοφονίες, σατανικές τελετουργίες και παραφυσική δραστηριότητα. Έτσι αποφασίζουν πως αυτή είναι η τέλεια ιστορία για την διατριβή της. Σιγά σιγά αρχίζει να αποκαλύπτεται η αλήθεια σχετικά με αυτόν τον αστικό θρύλο.....

 

JY3AufK.jpg

 

 

3sZwobQ.png


 

 

TEXNIKA XAΡΑΚΤΗΡΙΣΤΙΚΑ

General


Format                      : AVI

Format/Info                 : Audio Video Interleave

File size                   : 1.36 GiB

Duration                    : 1 h 14 min

Overall bit rate            : 2 612 kb/s

Writing application         : VirtualDubMod 1.5.10.2 (build 2542/release)

Writing library             : VirtualDubMod build 2542/release

 

Video

ID                          : 0

Format                      : MPEG-4 Visual

Format profile              : Advanced [email protected]

Format settings, BVOP       : 1

Format settings, QPel       : No

Format settings, GMC        : No warppoints

Format settings, Matrix     : Default (H.263)

Muxing mode                 : Packed bitstream

Codec ID                    : XVID

Codec ID/Hint               : XviD

Duration                    : 1 h 14 min

Bit rate                    : 2 221 kb/s

Width                       : 720 pixels

Height                      : 304 pixels

Display aspect ratio        : 2.35:1

Frame rate                  : 23.976 (24000/1001) FPS

Color space                 : YUV

Chroma subsampling          : 4:2:0

Bit depth                   : 8 bits

Scan type                   : Progressive

Compression mode            : Lossy

Bits/(Pixel*Frame)          : 0.423

Stream size                 : 1.16 GiB (85%)

Writing library             : XviD 64

 

Audio

ID                          : 1

Format                      : AC-3

Format/Info                 : Audio Coding 3

Format settings, Endianness : Big

Codec ID                    : 2000

Duration                    : 1 h 14 min

Bit rate mode               : Constant

Bit rate                    : 384 kb/s

Channel(s)                  : 6 channels

Channel positions           : Front: L C R, Side: L R, LFE

Sampling rate               : 48.0 kHz

Frame rate                  : 31.250 FPS (1536 spf)

Bit depth                   : 16 bits

Compression mode            : Lossy

Stream size                 : 205 MiB (15%)

Alignment                   : Split accross interleaves

Interleave, duration        : 64  ms (1.53 video frames)

Interleave, preload duratio : 500  ms

Service kind                : Complete Main


 

 

usDrZmS.png

http://www.imdb.com/title/tt7315526/

 

 

GngRSiQ.png

 

hsp9fZM.png

 

Hidden Content

    Give reaction or reply to this topic to see the hidden content.

 

 

eCmryx5.png

 

Hidden Content

    Give reaction or reply to this topic to see the hidden content.

 

 

 

WhnxB5b.png

 

Hidden Content

    Give reaction or reply to this topic to see the hidden content.


  • Like 1
  • Thanks 2

Μοιράσου αυτή την δημοσίευση


Link to post
Share on other sites

Δημιουργήστε ένα λογαριασμό ή συνδεθείτε προκειμένου να αφήσετε κάποιο σχόλιο

Πρέπει να είστε μέλος για να μπορέσετε να αφήσετε κάποιο σχόλιο

Δημιουργία λογαριασμού

Κάντε μια δωρεάν εγγραφή στην κοινότητά μας. Είναι εύκολο!

Εγγραφή νέου λογαριασμού

Σύνδεση

Εάν έχετε ήδη λογαριασμό; Συνδεθείτε εδώ.

Συνδεθείτε τώρα

×