Μετάβαση στο περιεχόμενο
marinara

ANNIHILATION (2018) 720p BluRay x264 DD5.1-HDChina ΞΕΧΩΡΙΣΤΟΙ ΥΠΟΤΙΤΛΟΙ

Recommended Posts

 

W1QbMB0.jpg


Μια ομάδα τεσσάρων γυναικών (μια βιολόγος, μια ανθρωπολόγος, μια ψυχολόγος και μια τοπογράφος) βρίσκονται σε μια άγνωστη περιοχή, γνωστή ως Περιοχή Χ. Το μέρος είναι εγκαταλελειμμένο και αποκομμένο από τον υπόλοιπο πολιτισμό, ενώ αυτή είναι η δωδέκατη εξερευνητική ομάδα που το επισκέπτεται. Αλλά όλες οι υπόλοιπες έχουν χτυπηθεί από εξαφανίσεις, αυτοκτονίες, επιθετικούς καρκίνους και ψυχικά τραύματα.


usDrZmS.png

http://www.imdb.com/title/tt2798920/


Είδος Ταινίας: Adventure, Drama, Fantasy
Πρεμιέρα: 23 February 2018 (USA)
Σκηνοθέτης: Alex Garland
Σενάριο: Alex Garland (written for the screen by), Jeff VanderMeer (based on the novel by)
Ηθοποιοί: Natalie Portman, Jennifer Jason Leigh, Tessa Thompson
Ελληνικός Τίτλος: Αφανισμός
Μετάφραση: Άγνωστος
Διάρκεια: 115'

 

3sZwobQ.png

 

 

General
Unique ID                      : 204226119142044104954443128281719031855 (0x99A48513756BA74ABFFFD2CB6572C82F)
Complete name                  : I:\Annihilation.2018.720p.BluRay.x264.DD5.1-HDChina.mkv
Format                         : Matroska
Format version                 : Version 4 / Version 2
File size                      : 4.55 GiB
Duration                       : 1h 55mn
Overall bit rate               : 5 665 Kbps
Movie name                     : Annihilation 2018 720p BluRay x264 DD5.1-HDChina
Encoded date                   : UTC 2010-02-22 21:41:31
Writing application            : mkvmerge v5.9.0 ('On The Loose') built on Dec  9 2012 15:37:01
Writing library                : libebml v1.3.0 + libmatroska v1.4.0

Video
ID                             : 1
Format                         : AVC
Format/Info                    : Advanced Video Codec
Format profile                 : [email protected]
Format settings, CABAC         : Yes
Format settings, ReFrames      : 12 frames
Muxing mode                    : Header stripping
Codec ID                       : V_MPEG4/ISO/AVC
Duration                       : 1h 55mn
Bit rate                       : 5 000 Kbps
Width                          : 1 280 pixels
Height                         : 536 pixels
Display aspect ratio           : 2.40:1
Frame rate                     : 23.976 fps
Color space                    : YUV
Chroma subsampling             : 4:2:0
Bit depth                      : 8 bits
Scan type                      : Progressive
Bits/(Pixel*Frame)             : 0.304
Stream size                    : 3.95 GiB (87%)
Title                          : Medusa @ HDChina
Writing library                : x264 core 148 r2665kMod a01e339
Encoding settings              : cabac=1 / ref=12 / deblock=1:-3:-3 / analyse=0x3:0x133 / me=umh / subme=11 / psy=1 / fade_compensate=0.00 / psy_rd=1.05:0.00 / mixed_ref=1 / me_range=32 / chroma_me=1 / trellis=2 / 8x8dct=1 / cqm=0 / deadzone=21,11 / fast_pskip=0 / chroma_qp_offset=-2 / threads=17 / lookahead_threads=2 / sliced_threads=0 / nr=0 / decimate=0 / interlaced=0 / bluray_compat=0 / constrained_intra=0 / fgo=0 / bframes=8 / b_pyramid=2 / b_adapt=2 / b_bias=0 / direct=3 / weightb=1 / open_gop=0 / weightp=2 / keyint=240 / keyint_min=24 / scenecut=40 / intra_refresh=0 / rc=2pass / mbtree=0 / bitrate=5000 / ratetol=1.0 / qcomp=0.70 / qpmin=0 / qpmax=69 / qpstep=4 / cplxblur=20.0 / qblur=0.5 / ip_ratio=1.20 / pb_ratio=1.20 / aq=3:0.85

Audio
ID                             : 2
Format                         : AC-3
Format/Info                    : Audio Coding 3
Mode extension                 : CM (complete main)
Muxing mode                    : Header stripping
Codec ID                       : A_AC3
Duration                       : 1h 55mn
Bit rate mode                  : Constant
Bit rate                       : 640 Kbps
Channel(s)                     : 6 channels
Channel positions              : Front: L C R, Side: L R, LFE
Sampling rate                  : 48.0 KHz
Bit depth                      : 16 bits
Compression mode               : Lossy
Stream size                    : 526 MiB (11%)
Language                       : English

 

gcCBUg6.jpg

 

| EASYBYTEZ | COOLBYTEZ |


Hidden Content

    Give reaction or reply to this topic to see the hidden content.

Edited by marinara

Μοιράσου αυτή την δημοσίευση


Link to post
Share on other sites

Δημιουργήστε ένα λογαριασμό ή συνδεθείτε προκειμένου να αφήσετε κάποιο σχόλιο

Πρέπει να είστε μέλος για να μπορέσετε να αφήσετε κάποιο σχόλιο

Δημιουργία λογαριασμού

Κάντε μια δωρεάν εγγραφή στην κοινότητά μας. Είναι εύκολο!

Εγγραφή νέου λογαριασμού

Σύνδεση

Εάν έχετε ήδη λογαριασμό; Συνδεθείτε εδώ.

Συνδεθείτε τώρα

×